Peter Frampton - All Blues 2019 (flac HD 24b 96k) Blues

Téléchargement & Détails

Télécharger Télécharger le torrent
Mots clés Flac (24 bit) Cd Album Blues
Seeders 14 Leechers 1 Complétés 125
Informations Voir les informations
Fichiers 11 - Voir les fichiers

Présentation

Ajouter à mes favoris Voir le NFO Signaler

Peter Frampton - All Blues 2019 (flac HD 24b 96k)

81vwkPtedqL._SY355_.jpg



Long parcours que celui de Peter Frampton, déjà légendaire en note de bas de page du grand livre de l’histoire du rock des années 1960, d’abord avec The Herd, puis avec Humble Pie. Il est presque malheureux — sinon les millions et la gloire qui comptent quand même un peu — que son curriculum se résume au double album Frampton Comes Alive, et surtout, surtout, à l’utilisation abusive du mâche-machin qui triturait le son de la voix (l’infâme talk-box). Vaudrait mieux — il en conviendra au moment d’entamer le Farewell Tour qui l’amènera au FIJM — se souvenir de lui pour son doigté de bluesman britiche dans la tradition des Peter Green, Mick Taylor et autres fluides manieurs de manche. On a donc tout avantage à l’entendre ici, en compagnie des Kim Wilson, Sonny Landreth, Larry Carlton, Steve Morse et autres blueseux, revisitant la note étirée longtemps sans rien d’autre que ses doigts meurtris de quasi-retraité. C’est maintenant ou jamais pour l’injection finale, chers guitares-héroïnomanes.

All Blues, le nouveau Peter Frampton Band, est un album de reprises des titres préférés de Peter Frampton issus du répertoire Blues.On y retrouve des classiques comme I Just Want To Make Love To You ou Georgia On My Mind. Pour l’occasion, le guitariste s’est entouré d’invités prestigieux comme Kim Wilson, Larry Carlton, Sonny Landreth et Steve Morse.

TITRES

DR7       -0.30 dB    -8.74 dB      4:06 01-I Just Want To Make Love To You

DR8       -0.30 dB    -9.68 dB      4:45 02-She Caught The Katy

DR7       -0.30 dB    -9.00 dB      4:11 03-Georgia On My Mind

DR8       -0.30 dB   -10.10 dB      4:25 04-You Can't Judge A Book By The Cover

DR8       -0.30 dB    -9.21 dB      4:23 05-Me And My Guitar

DR10      -0.30 dB   -12.12 dB      6:57 06-All Blues

DR8       -0.30 dB    -9.45 dB      5:52 07-The Thrill Is Gone

DR7       -0.30 dB    -8.59 dB      5:12 08-Going Down Slow

DR8       -0.30 dB    -9.90 dB      3:59 09-I'm A King Bee

DR8       -0.30 dB   -10.49 dB      4:34 10-Same Old Blues

Un régal

INFOS sur L’ALBUM et DETAILS SUR L’UPLOAD

Nombre de disque : 1

Format : FLAC 24 bit/96kHz, Lossless, stéréo

Présence des Covers : oui

Genre : Blues Rock

Source : Qobuz

Taille :   1 Go

Up réalisé par : duckjibe

 

Bonne écoute à tous et n’oubliez pas d’acheter aussi de la Musique.

Un commentaire fait toujours plaisir.



Commentaires

Derniers commentaires

  • utilisateur

     Torobmal

    708.93Go - 378.06Go

    Ajouté par Torobmal il y a 2 mois

    merci beaucoup
  • utilisateur

     Retina

    5.18To - 1.51To

    Ajouté par Retina il y a 3 mois

    Merci beaucoup ;)
  • utilisateur

     Lolofbaf2A

    928.23Go - 699.63Go

    Ajouté par Lolofbaf2A il y a 3 mois

    Merci pour ce post!